#TITLE:Cry;
#SUBTITLE:;
#ARTIST:Norther;
#TITLETRANSLIT:;
#SUBTITLETRANSLIT:;
#ARTISTTRANSLIT:;
#CREDIT:RyouYami;
#BANNER:Cry.png;
#BACKGROUND:Cry-bg.jpg;
#LYRICSPATH:;
#CDTITLE:;
#MUSIC:Cry.mp3;
#OFFSET:0.000;
#SAMPLESTART:100.000;
#SAMPLELENGTH:12.000;
#SELECTABLE:YES;
#BPMS:0.000=200.160,34.333=200.120,985.000=305.380;
#STOPS:;
#BGCHANGES:;
// cache tags:
#FIRSTBEAT:1.000;
#LASTBEAT:987.500;
#SONGFILENAME:Songs/nhac/Cry/Cry.sm;
#HASMUSIC:1;
#HASBANNER:1;
#MUSICLENGTH:297.633;
// end cache tags

//---------------dance-single - ----------------
#NOTES:
     dance-single:
     :
     Challenge:
     13:
     1.000,1.000,1.000,0.138,1.000,2306.000,588.000,41.000,0.000,80.000:
0000
0000
0000
0000
0000
0000
1010
0000
0000
0100
0000
0000
0000
0000
0000
0000
1001
0000
0000
0000
0000
0000
0110
0000
,
0000
0000
0000
0000
0010
0000
0000
0000
0000
0000
0000
1000
0000
0000
0010
0000
0000
1000
0000
0010
0000
0000
1000
0000
,
0000
0010
0000
0000
0100
0000
0000
0001
0000
0000
0000
0000
0000
0000
1000
0000
0000
0000
0000
0000
0010
0000
0000
0000
,
0000
0100
0000
0000
0000
0000
0000
0000
0010
0000
0000
0000
0000
0000
0000
1000
0000
0000
0000
0000
0000
0000
0000
0000
,
0100
0000
0000
0100
0000
0000
0100
0000
0000
0000
0100
0000
0000
0001
0000
0000
1000
0000
0000
0000
0000
0000
0010
0000
,
0000
0000
0000
0000
1000
0000
0000
0000
0000
0000
0010
0000
0000
0000
0000
0000
0000
0100
0000
0000
0010
0000
1000
0000
,
0000
0010
0000
0000
1000
0000
0000
0010
0000
0100
0000
0000
0000
0000
0001
0000
0000
0000
1000
0000
0000
0000
0000
0000
,
0001
0000
0000
0000
0000
0000
0100
0000
0000
0000
0000
0000
0000
0001
0000
0000
0000
0000
0000
0000
0000
0000
0000
0001
,
0000
0000
0000
0000
0000
0000
0000
0001
0000
0000
0000
0000
,
0000
0000
0001
0000
0000
0000
0000
0000
0000
0000
0000
0000
0000
0000
0010
0100
,
1000
0100
0010
0100
1000
0001
0010
0100
1000
0100
0011
0100
1000
0100
0010
0001
,
0010
0000
0000
1100
0000
0000
0010
0000
0000
0001
0000
0000
0010
0000
0000
0100
0000
0000
0001
0000
0010
0000
0100
0000
0010
0000
0001
0000
0000
0000
1000
0000
0000
0100
0000
0000
0010
0000
0000
0001
0000
0000
0010
0000
0000
0100
0000
0000
,
1000
0000
0001
0000
0010
0000
0100
0000
0010
0000
0001
0000
1000
0000
0000
0100
0000
0000
0010
0000
0000
0001
0000
0000
0010
0000
0000
0100
0000
0000
1000
0000
0000
0001
0000
0000
0010
0000
0000
0101
0000
0000
0010
0000
0000
1001
0000
0000
,
0100
0010
0100
1000
0010
0100
0010
1000
0100
1000
0001
0010
0001
0100
0010
0100
,
0001
0010
0001
1000
0100
1000
0010
0100
0010
1000
0001
1010
0001
0100
1000
0100
,
0001
0000
0000
0010
0000
0000
0001
0000
0000
1000
0000
0000
0101
0000
0000
1000
0000
0000
0000
0000
0001
0000
0000
0000
0001
0000
0000
0000
0010
0000
0000
0000
0010
0000
0000
0000
0100
0000
0000
0000
0100
0000
0000
0000
1000
0000
0000
0000
,
1000
0100
0100
0010
0010
0001
0001
0100
0100
0010
0010
1000
,
1000
0100
0100
0010
0010
0001
0001
0100
0100
0010
0001
0001
,
0100
0000
0000
0000
0100
0000
0000
0000
0010
0000
0000
0000
0100
0000
0000
0000
0100
0000
0000
0000
0000
0011
0000
0000
1000
0000
0000
0000
0000
0000
1100
0000
0000
0000
0000
0000
0001
0000
0000
0000
0000
0000
0101
0000
0000
0000
0000
0000
,
1010
0101
1101
0101
0010
1001
0100
0100
,
0101
0000
0000
0100
0000
0000
1101
0000
0000
1011
0000
0000
0100
0000
0100
0000
0010
0000
0010
0000
0001
0000
0001
0000
,
0010
0100
1000
1000
0100
0010
0010
0001
0001
0010
0100
1000
,
0100
0010
0010
0100
1000
1000
0100
0010
0001
0001
0010
0100
,
1000
1001
0100
0010
0001
1001
0010
0100
1000
0001
0010
0001
,
0100
0000
0000
0000
0010
0000
0000
0000
0001
0000
0000
0000
0001
0000
0000
0000
0100
0000
0000
0000
0100
0000
0000
0000
0010
0000
0000
0000
1000
0000
0010
0000
0000
0001
0000
0000
0010
0000
0000
0001
0000
0000
0010
0000
0000
1000
0000
0000
,
0001
0100
0001
1000
0100
0001
0010
1000
0001
0100
0010
1000
0001
0010
1000
0100
,
0001
0010
1000
0100
1000
0100
1000
0100
1001
0010
0010
0010
0000
0000
0000
0000
,
0000
0000
0000
0101
0000
0000
0000
0000
0000
0000
1010
0000
0000
0000
0000
0000
0000
0000
0000
0000
0000
0000
0000
0000
,
0000
0000
0000
0000
0000
0000
1010
0000
0000
0000
0000
0000
0000
0000
0000
0000
0000
0000
0000
1000
0000
0000
0000
0000
,
0000
0000
0000
0000
1001
0000
0000
0000
0000
0000
0000
0000
0000
0100
0000
0000
0000
0000
0000
1010
0000
0000
0000
0000
,
0000
0000
0000
0000
0000
0000
1000
0000
0000
0000
0000
0000
0000
0000
0000
1001
0000
0000
0000
0000
1111
0000
0000
0000
,
0000
0000
0000
0000
0000
0000
0000
0000
0000
0000
0010
0000
0000
0000
0000
0000
0000
0000
0000
0000
0000
0000
0000
0010
,
0000
0000
0010
0000
,
1000
0000
0000
0001
0000
0000
0100
0000
,
0010
0000
0000
0000
0000
0000
0000
0000
0000
0000
0000
1000
0000
0000
0000
0000
0000
0000
0000
0000
0000
0000
0000
0000
,
0000
0000
0000
0001
0000
0000
0000
0000
0000
0000
0000
0000
0000
0000
0000
0000
0010
0000
0000
0000
0000
0000
0010
0000
,
0000
0000
0000
0000
0000
0000
0000
0000
0100
0000
0000
0000
,
0000
0000
0000
0000
0000
0001
0000
0000
0000
0000
0000
0000
0000
0000
0000
1000
0000
0000
0000
0000
0000
0000
0000
0010
,
0000
0000
0000
0000
0000
0100
0000
0000
0000
0000
0000
0000
0000
0000
0000
0000
0000
0001
0000
0000
0000
0000
0000
0000
,
1000
0000
0000
0000
0000
0000
0000
0010
0000
0000
0000
0000
0000
0000
0000
0000
0000
0000
0000
0100
0000
0000
0000
0000
,
0000
0000
0000
0000
0100
0000
0000
0000
0000
0000
0000
0010
,
0000
0000
0000
0000
0000
0000
0000
0000
0000
0000
1001
0000
0000
0000
0000
0000
0000
0000
0000
0000
0000
0110
0000
0000
,
0000
0000
1000
0000
0000
0000
0010
0000
0000
0000
0000
0100
,
0000
0000
0000
0000
0000
0000
0001
0000
0000
0000
0000
0000
1000
0000
0000
0000
0010
0000
0100
0000
0000
0010
0000
0100
,
0000
0000
0010
0000
1000
0000
0000
0001
0100
0000
0000
0000
0001
0000
0000
1000
0000
0000
0010
0000
0000
1000
0000
0000
,
0010
1000
0010
0100
0001
0100
0001
1000
,
0010
0000
0000
1000
0000
0000
0010
0000
0000
0000
1000
0000
0000
0010
0000
0000
0000
0100
0000
0000
0001
0000
0000
0100
,
0000
0010
0000
0000
0000
0100
0000
0000
0010
0000
0000
1000
0000
0000
0010
0000
0000
1000
0000
0000
0000
0001
0000
0000
,
0100
0000
0000
0001
0000
0000
0000
1000
0000
0010
0000
0000
1000
0000
0000
0010
0000
0000
0000
0100
0000
0000
0001
0000
,
0000
0100
0000
0000
0001
0000
0000
1000
0000
0010
0000
0000
0100
0000
0000
0000
0010
0000
1000
0000
0000
0000
0001
0000
,
0100
0000
0000
0001
0000
1000
0000
0000
0010
0000
0000
0100
0000
0000
0010
0000
0000
1000
0000
0000
0001
0000
0100
0000
,
0000
0000
0010
0000
0000
1000
0000
0000
0001
0000
0100
0000
0000
0000
0000
1000
0000
0000
0101
0000
0000
0000
0000
0010
,
0000
0000
1000
0000
0000
0010
0000
0000
0000
0100
0000
0000
0010
0000
0000
1000
0000
0001
0000
0000
0100
0000
0000
0001
,
0000
0000
1000
0000
0000
0001
0000
0000
1000
0000
0100
0000
0011
0000
0000
1000
0000
0000
0010
0000
0000
0000
0100
0000
,
0000
0010
0000
1000
0000
0000
0010
0000
0000
0100
0000
0011
0000
0000
1000
0000
0000
0010
0000
0000
0000
1100
0000
0000
,
0010
0000
0000
0000
1100
0000
0000
0001
0000
0000
0000
1010
0000
0000
0000
0000
0100
0000
0000
0010
0000
0000
1000
0000
,
0000
0001
0000
0000
1100
0000
0000
0010
0000
0000
0000
0100
0000
0000
0010
0000
0000
1000
0000
0000
0001
0000
0000
0100
,
0000
0000
0010
0000
0000
0000
1100
0000
0011
0000
0000
0000
1000
0000
0000
0010
0000
0000
0100
0000
0000
0010
0000
0000
,
1000
0000
0000
0000
0010
0000
0100
0000
0000
0001
0000
0000
1000
0000
0000
0010
0000
0000
1100
0000
0000
0011
0000
0000
,
1000
0000
0000
0000
0010
0000
0000
0100
0000
0000
0010
0000
0000
1000
0000
0000
0010
0000
0000
1100
0000
0001
0000
0000
,
0000
1100
0000
0011
0000
0000
1000
0000
0000
0000
0010
0000
0100
0000
0000
0010
0000
0000
1000
0000
0000
0010
0000
0000
,
1100
0001
0000
1100
0011
0000
0000
0000
0000
1100
0000
0000
,
0100
0000
0000
0110
1001
0110
0000
1010
,
0101
0000
1010
0000
0000
0000
0000
1010
0000
0101
0000
1010
0000
0000
0000
0110
,
0000
0000
0000
1101
0000
0000
0000
0000
0000
0110
0000
0000
0000
0000
0000
0000
0000
0000
0000
0000
0001
0000
0000
0000
0000
0000
0000
0000
0000
0000
0000
0000
1010
0000
0000
0000
0000
0000
0000
0000
0000
0000
0000
0000
0000
0000
0000
0000
,
0000
0101
0000
0000
0000
1010
0000
0000
0000
0000
0000
0000
,
0000
0000
0000
0100
0000
0000
0000
0000
0000
0000
0000
0000
0000
1010
0000
0000
0110
0000
0000
0101
0000
0000
0000
0000
,
0000
0000
1110
0000
0000
1010
0000
0000
1101
0000
0000
0000
0000
0000
1011
0000
0000
0111
0000
0000
1110
0000
0000
0000
,
0000
0000
1110
0000
0000
0111
0000
0000
1110
0000
0000
0000
0000
0000
0000
0000
0001
0000
0000
0000
0000
0000
0100
0000
,
0000
0000
0000
0000
0000
0000
0000
0000
0000
0000
0000
0010
0000
0000
0000
0000
0000
1001
0000
0000
0000
0000
0000
0000
,
0000
0000
0000
0000
0000
0000
0000
0000
0000
0000
0100
0000
0000
0000
0000
0000
0000
0000
0000
1011
0000
0000
0110
0000
,
0000
1101
0000
0000
0000
0000
0000
0000
0000
1110
0000
0000
0100
0000
0000
1110
0000
0000
0000
0000
0000
0101
0000
0000
,
0111
0101
0000
1110
0111
1110
0000
0110
,
0000
1001
0000
0000
0000
0110
0000
1001
,
0000
0000
0000
0000
0000
0000
0000
0000
0000
0000
0000
0000
0000
0000
0010
0000
0000
0000
0000
0000
0000
0000
0000
1010
,
0000
0000
1101
0000
0000
1010
0000
0000
0000
0000
0000
0000
0000
1101
0000
0000
0111
0000
0000
1101
0000
0000
0000
0000
,
0000
0110
1100
0101
0000
0011
0011
0011
,
0000
0000
0000
0000
0000
0000
1000
0000
0000
0000
0000
0000
0000
0000
0000
0000
0000
0000
0001
0000
0000
0000
0100
0000
0000
0000
0000
1000
0000
0000
0100
0000
0000
1010
0000
0000
0101
0000
0000
0010
0000
0000
1100
0000
0000
0011
0000
0000
,
0100
1001
0100
1010
0101
0010
0100
1000
0100
1001
0100
0010
0100
1000
0101
0010
,
0100
1000
0101
0010
0100
1000
0100
0010
0101
0010
0100
1000
0100
0010
0001
0100
,
1010
0101
0010
0101
0010
0101
1000
0100
0010
0101
0001
0010
0100
1000
0100
0010
,
0100
1000
0100
0010
0101
1000
0100
0010
0101
1000
0100
1001
0010
1100
0010
0001
,
1000
0100
0010
1100
0010
0001
0010
0001
0110
0001
0010
0100
1000
0011
0100
0010
,
0001
0010
0010
0100
1000
0101
0010
0100
1000
0110
1000
0100
0010
0100
1011
0100
,
0010
0001
1000
0100
1011
0100
1010
0100
1000
0010
1000
0010
1000
0001
0110
0001
,
1000
0100
1000
0100
1001
0100
1000
0100
0001
0010
0001
1000
0100
0011
1000
0100
,
1001
0010
1101
0010
0001
0010
0100
1000
0101
0010
0001
1010
0100
1000
0100
0010
,
1100
0010
0001
0010
1100
0001
0010
0100
0011
0100
1000
0001
1000
0110
0001
1000
,
0011
1100
0001
0010
1100
0010
0001
1100
0010
0100
0011
1000
0100
0010
1100
0001
,
0010
0001
0010
0001
0110
0001
0010
0001
0110
1000
0100
0010
0100
1000
0110
0001
,
0110
1000
0100
0010
0001
1100
0010
0001
1100
0010
0001
0010
1100
0010
0001
0010
,
0100
0011
0100
1000
0011
1100
0010
0001
1100
0011
0100
1000
0100
0001
0010
0100
,
1000
1000
0001
0010
0100
1000
1001
0010
0101
1000
0110
1000
0100
0010
1100
0001
,
0010
0100
1000
0001
1000
0100
0010
0001
0100
0001
0010
1001
0010
0101
1010
0001
,
0010
0100
0001
1000
0100
0010
0001
1000
0100
0010
0100
1010
0100
0010
1101
0010
,
0100
1000
0100
0010
1000
0100
1000
0001
0010
1000
0100
0001
0010
0100
0001
0010
,
1000
0100
1000
0100
1001
0100
1000
0101
1000
0100
0010
0001
0010
0101
0010
0001
,
1010
0001
0010
0100
0010
0101
0010
0100
0010
0100
1010
0100
0010
1000
0100
0010
,
0101
1001
0010
0101
0010
1001
0100
1010
0001
0010
0100
1010
0001
1010
0100
0010
,
0001
1010
0100
0001
0100
1010
0001
0010
0100
0010
0001
1100
0011
0100
0010
0001
,
1000
0100
1010
0100
1000
0101
0010
0001
1010
0100
1000
0101
0010
0001
1010
0100
,
1000
0101
0010
0001
0010
0100
0011
0100
0010
0001
0110
0001
0010
0100
0001
1000
,
0100
1011
0100
1000
0100
0010
0100
1001
0010
0001
1000
0100
1010
0100
0010
0100
,
1001
0010
0001
1010
0100
0010
0101
0010
1100
0010
0100
0001
0010
1000
0100
1000
,
0010
0100
0010
1000
0100
1000
0001
0010
0001
0100
0010
0100
0001
0010
0001
1000
,
0100
1000
0010
0100
0010
1000
0100
1000
0001
1000
0010
0001
0010
1000
0100
1000
,
0001
0010
0001
0100
0001
1000
0001
0110
1000
0010
0100
0010
0001
0110
0001
1000
,
0100
1010
0100
0001
0100
0001
1000
0001
1000
0001
1000
0011
1000
0001
1100
0001
,
1000
0011
1000
0110
0001
0110
0001
0010
0100
1000
0100
0010
0001
1000
0100
0010
,
0001
0100
1000
0010
0100
0010
0001
1000
0100
1000
0001
0010
0100
1000
0001
0010
,
0001
0100
0010
0001
0010
0100
1000
0001
0010
0100
0010
0100
0010
0100
0010
0100
,
0010
0100
0020
0000
0000
0030
0000
0000
0000
0000
0000
0000
0000
0000
0000
0000
,
0000
0000
0000
0000
,
0000
0000
0000
2000
0000
0000
0000
0000
,
0000
0000
0000
3000
0020
0000
0000
0000
,
0000
0000
0000
0030
0000
0200
0000
0000
0000
0000
0000
0000
0300
0000
2002
0000
,
0000
0000
0000
0000
0000
3003
0000
0220
0000
0000
0000
0000
0000
0330
0000
0000
,
2002
0000
0000
0000
0000
0000
3003
0000
0000
0100
0010
0001
0010
0100
1000
0100
,
0010
0001
0010
0100
0010
1000
0101
0010
1000
0101
0010
1001
0100
0010
0001
0010
,
0000
0000
0200
0000
0000
0000
0000
0000
0000
0300
1000
0010
0100
1001
0010
0101
,
1000
0100
1001
0010
0100
1001
0100
1010
0100
0001
1000
0110
1000
0101
0010
1000
,
0101
0010
1000
0101
0010
0001
1100
0010
0101
0010
1000
0010
1000
0001
0010
0100
,
1000
0010
0100
0010
0100
1010
0001
0110
1000
0010
0101
0010
0100
1000
0010
0101
,
1000
0110
0001
1000
0001
0010
0100
0010
0100
1000
0001
0110
1000
0100
0010
1001
,
0110
1000
0010
0101
1010
0100
1001
0010
0100
1001
0100
0010
0100
0001
1000
0010
,
0100
1001
0100
0010
1000
0001
1000
0110
1000
0101
0010
1000
0001
0100
0010
1000
,
0101
0000
1010
0100
1001
0010
0100
1101
0010
1001
0100
1010
0001
0110
1000
0000
,
0020
0000
0000
0000
0000
0030
0000
0000
0000
2000
0000
0000
0000
3000
0000
0001
,
0010
0100
1000
0100
0010
0100
1000
0110
0001
0010
1100
0010
0001
0010
1100
0010
,
0001
0010
0100
0010
0001
0010
0100
1000
0110
0001
0100
0001
1000
0110
0001
0010
,
1000
0110
0001
0010
0100
1010
0100
0010
0001
0010
1001
0010
0100
1010
0100
0010
,
1100
0010
0001
0010
0100
1000
0100
0010
1001
0010
0100
1001
0100
0010
1001
0110
,
1000
0001
0010
0100
1000
0110
0001
0110
1000
0100
0010
0001
1010
0100
1010
0101
,
0010
1100
0001
0010
0100
1000
0100
0010
0100
1000
0010
0100
0010
1001
0000
1110
,
0000
1101
0010
0001
0010
0100
1000
0100
0010
0100
1000
0100
0010
1100
0001
0110
,
1000
0101
1000
0010
0001
0010
0100
0001
0010
0100
1000
0010
1000
0100
0001
0010
,
1001
0100
1010
0001
0100
1011
0100
0010
1000
0100
0001
0010
1000
0100
0010
0001
,
0010
0100
0010
0001
0010
0100
0010
0001
0010
0100
1010
1000
0100
0010
1001
0001
,
1010
0100
1000
0100
0010
0001
0010
0100
1000
1010
0100
0010
0001
0001
0010
0100
,
1000
0100
0010
0100
1000
0100
1000
0001
1000
0010
0001
0100
0001
0010
0100
0010
,
1100
0010
1001
0010
0100
1000
0100
0010
0101
0010
0100
1010
0100
0010
0001
0001
,
0000
0000
0000
0000
1000
0000
1000
0000
1000
0000
0010
0000
0000
0010
0000
0010
,
0000
0000
0100
0000
0100
0000
0100
0000
0000
0001
0000
0000
0000
0001
0000
0001
,
0000
0000
1000
0000
1000
0000
1000
0000
0000
0010
0000
0000
0000
0100
0000
0100
,
0000
0000
0000
0000
0000
0010
0000
0010
0000
0010
0000
0000
0000
0000
1000
0000
,
1000
0000
0000
0000
0000
0010
0000
0010
0000
0010
0000
0000
0000
2002
0000
0000
,
0000
0000
0000
0000
0000
0000
0000
3003
0000
0010
0000
0000
0000
0000
0000
1001
,
0000
1001
0000
1001
0000
0000
0110
0000
0110
0000
0110
0000
0000
0000
0000
1001
,
0000
1001
0000
1001
0000
0000
0000
0110
0000
0110
0000
0110
0000
0000
0000
1001
,
0000
1001
0000
0000
0220
0000
0000
0000
0000
0000
0000
0330
1001
0000
0000
0000
,
0220
0000
0000
0000
0000
0000
0000
0330
0000
0000
0000
0000
0110
0000
0000
0000
,
0000
1001
0110
1001
0000
0111
1110
0111
,
0000
1001
1111
1001
0000
1011
1101
1011
,
0000
0000
0011
0001
0011
0000
0000
0000
,
1000
0000
0000
0000
2000
0000
0000
0000
0000
0000
0000
0000
0000
3000
0000
0000
,
0000
1010
0000
0100
0100
0100
0000
0010
,
0010
0000
0010
0000
0000
0000
1000
0000
1000
0000
1000
0000
0000
0000
0000
0001
,
0000
0001
0000
0001
0000
0000
0000
0000
0000
0000
0000
0200
0000
0000
0000
0000
,
0000
0300
0000
0020
0000
0000
0030
0000
0020
0000
0000
0000
0000
0000
0000
0000
,
0030
0000
0000
0000
0010
0000
0000
0000
0000
1001
0000
1001
0000
1001
0000
0000
,
0000
0110
0000
0110
0000
0110
0000
0000
0000
0000
1001
0000
1001
0000
1001
0000
,
0000
0110
0110
0110
0000
0000
0000
1010
,
0101
0110
1100
0110
0101
0111
1010
1110
,
0101
1001
1101
0101
0011
0101
0110
1110
,
0101
1100
0011
1100
0110
0011
0110
1100
,
0101
1010
0011
0110
0101
1010
1100
0110
,
0101
0110
0111
1110
0111
1100
0110
0011
,
0110
1100
0110
0101
1100
0101
0100
0110
,
0010
0101
0100
1110
0100
1110
0110
0101
,
1010
0101
0110
1010
0100
1010
0100
0101
,
1010
1100
0110
0111
1110
0111
1101
1011
,
1101
1100
0011
1100
1100
0011
1100
0011
,
1100
1100
0011
0011
1001
1001
0110
0110
,
1010
1010
0101
0101
1010
0101
1010
0011
,
1110
0011
1100
0111
1100
0111
1101
0111
,
0110
0101
1110
1111
0110
1100
0110
0011
,
0110
1100
0100
1010
0101
0111
1010
1110
,
0111
1110
0011
0110
0011
1010
1110
0101
,
0111
0000
0000
0110
0000
0000
1100
0000
0000
0110
0000
0000
0101
0000
0000
1010
0000
0000
1100
0000
0010
0000
0010
0000
,
0100
0100
0001
0001
0010
0010
1000
1000
0100
0100
0010
0010
,
0001
0001
0100
0100
0010
0010
1000
1000
0100
0100
0010
0010
,
0100
0100
0001
0001
1010
0100
0100
1010
0100
0100
0010
0010
,
0101
0010
0010
1101
0100
0100
1000
1000
0100
0100
0100
0010
,
0010
0010
0001
0001
0100
0100
0010
0010
1000
1000
0100
0100
,
0010
0010
0001
0001
0010
0010
0100
0100
1000
1000
0101
1010
,
0101
0010
0010
0100
0100
0011
1100
0011
0100
0100
1000
1000
,
0100
0100
0010
0010
0001
0001
0001
0001
0001
0010
0010
0100
,
0100
1000
1000
1000
1000
0010
0010
0100
0100
0001
0001
0010
,
0100
1000
1000
0100
0010
0010
0001
0001
0001
0010
0100
0100
,
0010
0001
0001
0010
0100
1000
1000
0100
0100
1000
1000
0001
,
0001
0100
0100
1000
1000
0010
0010
0001
0001
1000
1000
0100
,
0100
0001
0001
1000
1000
0010
0010
0001
0001
1000
1000
0001
,
0001
0100
0100
1010
0001
0001
1010
0001
0001
1000
1000
0101
,
1000
1000
0111
0001
0001
0010
0010
0001
0001
0001
1000
1000
,
1000
0100
0100
0001
0001
1000
1000
0010
0010
0001
0001
1000
,
1000
0100
0100
1000
1000
0001
0001
0010
0010
0101
1010
0101
,
1000
1000
0001
0001
1100
0011
1100
0001
0001
0010
0010
0001
,
0001
1000
1000
0100
0100
0100
0100
0100
1000
1000
0001
0001
,
0010
0010
0010
0010
1000
1000
0001
0001
0100
0100
1000
0001
,
0010
0010
0001
1000
1000
0100
0100
0100
1000
0001
0001
1000
,
0100
0100
1000
0001
0010
0010
0001
0001
0100
1000
0010
0100
,
0001
0100
0100
0010
0001
0001
1000
1000
0100
0001
0001
1000
,
0001
0100
0100
1000
0100
0010
0101
0100
0010
1010
0010
1010
,
0001
0010
1001
1000
0100
0011
0010
1000
0101
0100
1010
0100
,
0001
1010
0100
0010
0100
0101
0100
0101
0010
0001
1001
0001
,
1000
0100
1000
1001
0100
0100
1000
0010
0100
0001
1010
0001
,
0101
1000
0001
0010
0100
0010
1000
0010
0101
1001
1001
0100
,
0010
0001
0001
0110
0001
0110
0001
1010
1000
1001
0001
0010
,
1000
1000
0010
0100
1000
0100
0100
0001
0001
0100
0010
0001
,
0001
0001
0010
1000
1000
1000
0010
1000
1000
0100
0100
0010
,
0100
0001
0001
0100
0001
0001
1000
0001
0010
1000
0010
0001
,
0100
0000
0010
0000
1000
0000
0001
0000
0010
0000
0000
0000
0100
0000
0000
0010
0000
0000
1000
0000
0000
0010
0000
0000
,
0100
0001
1000
0001
0100
0010
1000
0010
,
0100
0000
0020
0000
0000
0030
0000
0020
0000
0000
0000
0000
0000
0000
0000
0030
,
0000
0000
1001
0000
0110
0110
0110
0000
,
1001
0000
1001
0000
1001
0000
0000
0000
0000
0110
0000
0110
0000
0110
0000
0000
,
0000
1001
0000
1001
0000
1001
0000
0000
0000
0000
0000
0000
0000
0000
0200
0000
,
0000
0000
0000
0000
0300
0020
0000
0000
0030
0000
0200
0000
0000
0000
0000
0000
,
0000
0300
0000
0000
0000
0000
1001
0000
0000
0000
0000
1001
0000
1101
0000
1001
,
0000
0000
1101
1011
1101
0000
1001
1111
,
1001
0000
0000
0000
0000
1001
0000
0110
0000
1001
0000
0000
0000
0000
0000
0000
,
0000
0020
0000
0000
0000
0000
0000
0030
0000
0200
0000
0000
0300
0020
0000
0000
,
0000
0000
0000
0000
0000
0030
0000
0000
0000
1001
0000
0000
0000
0000
0000
1010
,
0000
1010
0000
1010
0000
0000
0000
0101
0000
0101
0000
0101
0000
0000
0000
0000
,
1010
1010
1010
0000
0101
0101
0101
0000
,
0000
0000
0000
0000
2020
0000
0000
0000
0000
3030
0000
0000
0202
0000
0303
0000
,
2020
0000
0000
0000
0000
0000
0000
0000
3030
0000
0000
0000
0000
0010
0000
0000
,
0000
0000
0101
0000
0101
0000
0101
0000
0000
0000
0000
1110
0000
1010
0000
1110
,
0000
0000
0000
1010
0000
1110
0000
1010
0000
0000
0000
0000
0101
0000
0101
0000
,
0101
0000
0000
0000
0000
0101
0000
1010
0000
0101
0000
0000
0000
0000
0100
0000
,
0100
0000
0100
0000
0000
0000
0000
0000
0000
0001
0000
0000
0100
0010
0100
0010
,
0100
0010
1000
0100
0010
0100
1000
0110
1000
0100
0010
0100
0011
0100
1000
0100
,
0011
1000
0100
0001
0001
1000
1000
0100
0100
0010
0010
1100
0010
0001
0110
0001
,
0010
0100
0010
0001
0100
1010
0100
0010
0101
0010
0100
1000
0100
0010
0101
0010
,
0100
1000
1000
0100
0100
0010
0010
0001
0001
0010
0100
0010
0001
1010
0100
0010
,
0001
1010
0100
0010
0001
0010
0101
0010
0100
1000
0101
0010
0100
1000
0101
0010
,
0100
1000
0101
0010
0100
0010
0101
0010
0001
1010
0100
0010
0101
0010
0001
1010
,
0100
1000
0101
0010
0001
0010
1001
0010
0001
0010
0100
1000
0100
1000
0011
1000
,
0110
0001
0010
0001
0110
0001
0010
0100
1000
0110
1000
0100
0010
0100
0010
0010
,
0001
0010
0100
0010
0001
1000
0000
0010
0000
0010
0000
0010
0000
0000
0100
0000
,
0100
0000
0100
0000
1000
0000
0001
0000
1000
0000
0001
0000
1000
0001
0000
0001
,
0000
0100
0000
0100
0000
0100
0000
0010
0000
0010
0000
0010
0000
0100
0000
0100
,
0000
0010
0000
0010
0000
0010
0000
1000
0000
0000
0001
0000
1000
0000
0001
0000
,
1000
0000
0001
0100
0100
0100
0100
0010
,
0010
0010
0100
0100
0100
0010
0010
0010
,
0010
0000
0010
0000
0000
0000
1010
0101
1000
0101
0000
0000
0100
0000
0010
0000
,
0100
0000
0100
0000
0010
0000
0000
0000
0000
2222
0000
0000
0000
0000
3333
0000
;
